Jilla (2014) Lotus 1CD DVDRip Download

Jilla (2014) Lotus 1CD DVDRip Download,Free download Jilla (2014) Lotus 1CD DVDRip Download,DVDRip Download Jilla (2014),Jilla (2014) Download 1 Link,

Code:
General
Format                           : AVI
Format/Info                      : Audio Video Interleave
File size                        : 703 MiB
Duration                         : 2h 46mn
Overall bit rate                 : 591 Kbps

Video
ID                               : 0
Format                           : MPEG-4 Visual
Format profile                   : [email protected]
Format settings, BVOP            : No
Format settings, QPel            : No
Format settings, GMC             : No warppoints
Format settings, Matrix          : Default (H.263)
Codec ID                         : XVID
Codec ID/Hint                    : XviD
Duration                         : 2h 46mn
Bit rate                         : 497 Kbps
Width                            : 624 pixels
Height                           : 256 pixels
Display aspect ratio             : 2.40:1
Frame rate                       : 29.970 fps
Color space                      : YUV
Chroma subsampling               : 4:2:0
Bit depth                        : 8 bits
Scan type                        : Progressive
Bits/(Pixel*Frame)               : 0.104
Stream size                      : 591 MiB (84%)
Writing library                  : XviD 1.1.2 (UTC 2006-11-01)

Audio
ID                               : 1
Format                           : MPEG Audio
Format version                   : Version 1
Format profile                   : Layer 3
Mode                             : Joint stereo
Mode extension                   : MS Stereo
Codec ID                         : 55
Codec ID/Hint                    : MP3
Duration                         : 2h 46mn
Bit rate mode                    : Constant
Bit rate                         : 80.0 Kbps
Channel(s)                       : 2 channels
Sampling rate                    : 48.0 KHz
Stream size                      : 95.1 MiB (14%)
Alignment                        : Split accross interleaves
Interleave, duration             : 24 ms (0.72 video frame)

Code:
https://ultramegabit.com/file/details/Id7M1WUBZxk
Code:
http://www.rocketfile.net/1z0z4eeijlbo
Code:
http://turbobit.net/j4qap0u817nr.html
Code:
http://fileom.com/hrnww19kdq0r
Code:
http://www.uploadable.ch/file/T97bhWfUCYuH

Related Post

Leave a Reply

Your email address will not be published. Required fields are marked *